osu file format v14

[General]
AudioFilename: okdad.mp3
AudioLeadIn: 1500
PreviewTime: 42217
Countdown: 0
SampleSet: None
StackLeniency: 0.7
Mode: 0
LetterboxInBreaks: 0
WidescreenStoryboard: 0

[Editor]
DistanceSpacing: 1.2
BeatDivisor: 4
GridSize: 4
TimelineZoom: 2.4

[Metadata]
Title:L.L.L.
TitleUnicode:L.L.L.
Artist:MYTH & ROID
ArtistUnicode:MYTH & ROID
Creator:Aerous
Version:guineaQ's Hard
Source:オーバーロード
Tags:Jmmxps Gaia overlord ending theme guineaQ -kevincela- Pho
BeatmapID:767253
BeatmapSetID:347111

[Difficulty]
HPDrainRate:5
CircleSize:4
OverallDifficulty:6
ApproachRate:8
SliderMultiplier:1.4
SliderTickRate:1

[Events]
//Background and Video events
0,0,"rsz_52190094_p0.jpg",0,0
Video,-450,"dude nice.avi",0,0
//Break Periods
//Storyboard Layer 0 (Background)
//Storyboard Layer 1 (Fail)
//Storyboard Layer 2 (Pass)
//Storyboard Layer 3 (Foreground)
//Storyboard Sound Samples

[TimingPoints]
678,288.461538461538,4,2,1,50,1,0
2986,288.461538461538,4,1,1,70,1,0
42217,-80,4,1,1,100,0,1
60678,-90.9090909090909,4,1,1,80,0,0
69909,-90.9090909090909,4,1,1,80,0,1
80294,-100,4,2,1,60,0,0
86063,-100,4,2,1,30,0,0
87409,-100,4,2,1,20,0,0

[Colours]
Combo1 : 255,128,192
Combo2 : 255,128,128
Combo3 : 128,255,255
Combo4 : 255,255,128

[HitObjects]
104,139,678,6,0,B|146:126|179:147|179:147|211:133|211:133|257:147,1,140,0|0,1:0|0:0,0:0:0:0:
385,219,1254,1,0,0:0:0:0:
321,273,1399,2,0,B|297:251|292:217|306:190,1,70,2|2,0:0|0:0,0:0:0:0:
216,64,1831,6,0,B|238:108|229:159|199:193,1,140,0|0,1:0|0:0,0:0:0:0:
156,268,2264,2,0,B|123:231|118:179|138:138,1,140,0|2,0:0|0:0,0:0:0:0:
336,282,2985,6,0,B|363:299|395:298|421:284,1,70,6|0,0:0|0:0,0:0:0:0:
382,209,3274,1,8,0:0:0:0:
266,232,3419,2,0,B|240:268|243:316|272:350|309:362,1,140,0|2,0:0|0:0,0:0:0:0:
336,282,3851,1,8,0:0:0:0:
424,138,4140,6,0,B|439:109|436:76|420:51,1,70,2|0,0:0|0:0,0:0:0:0:
350,98,4428,1,8,0:0:0:0:
329,16,4573,2,0,B|285:28|256:69|258:115|281:148,1,140,0|10,0:0|0:0,0:0:0:0:
270,126,5005,1,0,0:0:0:0:
192,157,5149,1,8,0:0:0:0:
216,237,5294,6,0,B|183:249|144:226|144:226|108:245|117:311,1,140,2|8,0:0|0:0,0:0:0:0:
189,319,5726,2,0,B|235:347|291:343|331:314,1,140,0|2,0:0|0:0,0:0:0:0:
397,280,6159,1,8,0:0:0:0:
256,184,6448,6,0,L|256:32,1,140,2|8,0:0|0:0,0:0:0:0:
179,147,6880,2,0,B|161:186|171:230|202:259|238:267,2,140,2|0|0,0:0|0:0|0:0,0:0:0:0:
256,184,7601,6,0,B|302:169|334:187|367:201|417:181,1,140,4|8,0:0|0:0,0:0:0:0:
291,320,8178,2,0,B|245:335|213:317|180:303|130:323,1,140,8|8,0:0|0:0,0:0:0:0:
256,184,8755,6,0,B|282:125|250:69|250:69|207:89,1,140,0|8,0:0|0:0,0:0:0:0:
155,114,9188,1,0,2:0:0:0:
79,151,9332,2,0,B|53:210|85:266|85:266|128:246,1,140,8|8,0:0|0:0,0:0:0:0:
179,220,9765,6,0,B|218:203|218:203|205:261|252:298,1,140,6|0,0:0|2:0,0:0:0:0:
299,227,10198,1,8,0:0:0:0:
333,303,10342,2,0,B|378:282|395:227|370:185,1,140,2|0,0:0|0:0,0:0:0:0:
299,227,10774,1,8,0:0:0:0:
370,185,10919,6,0,B|423:199|457:246|457:297,1,140,2|0,0:0|0:0,0:0:0:0:
456,200,11351,2,0,B|500:188|529:147|529:102|509:68,1,140,0|10,0:0|0:0,0:0:0:0:
438,117,11784,2,0,B|353:107|271:121,1,140,2|0,0:0|2:0,0:0:0:0:
154,168,12217,6,0,B|185:199|185:199|169:311,1,140,4|8,0:0|0:2,0:0:0:0:
59,168,12794,2,0,B|103:166|138:135|149:93|138:57,1,140,2|8,0:0|0:2,0:0:0:0:
58,83,13226,1,8,0:2:0:0:
58,83,13371,6,0,B|53:56|63:29|82:12,1,70,0|0,0:0|0:0,0:0:0:0:
141,73,13659,1,0,0:0:0:0:
217,37,13803,2,0,L|360:33,1,140,0|0,0:0|0:0,0:0:0:0:
437,9,14236,1,8,0:2:0:0:
334,141,14524,6,0,B|343:168|339:195|328:217,1,70,8|0,0:2|0:0,0:0:0:0:
256,172,14813,2,0,B|224:167|195:186|186:215,1,70,0|0,0:0|0:0,0:0:0:0:
256,254,15101,2,0,L|264:341,2,70,8|0|8,0:2|0:0|0:2,0:0:0:0:
261,85,15678,6,0,B|202:77|149:106|121:152,1,140,2|8,0:0|0:0,0:0:0:0:
99,209,16111,2,0,L|82:61,1,140,0|8,0:0|0:3,0:0:0:0:
83,69,16544,1,8,0:2:0:0:
256,254,16832,6,0,B|278:215|278:215|390:204,1,140,4|8,0:0|0:2,0:0:0:0:
364,37,17409,2,0,B|363:82|330:119|285:128|248:113,1,140,2|8,0:0|0:2,0:0:0:0:
279,34,17842,1,8,0:2:0:0:
279,34,17986,6,0,B|247:29|217:45|201:70,1,70,0|0,0:0|0:0,0:0:0:0:
270,118,18274,1,0,0:0:0:0:
327,180,18419,2,0,B|353:206|344:251|306:268|274:256|260:232,1,140,0|0,0:0|0:0,0:0:0:0:
203,177,18851,1,8,0:2:0:0:
74,285,19140,6,0,L|-8:288,2,70,0|0|8,0:0|0:0|0:2,0:0:0:0:
139,232,19573,1,0,0:0:0:0:
188,299,19717,2,0,B|217:279|227:243|217:212,2,70,0|0|8,0:0|0:0|0:2,0:0:0:0:
139,232,20149,6,0,B|150:192|142:151,1,70,0|0,0:0|0:0,0:0:0:0:
71,118,20438,2,0,B|119:139|172:124|203:88,1,140,0|0,0:0|0:0,0:0:0:0:
117,20,20871,1,4,0:2:0:0:
256,192,21159,1,4,0:2:0:0:
395,20,21448,6,0,B|441:39|441:39|449:149,1,140,4|8,0:0|0:0,0:0:0:0:
344,260,22024,2,0,B|298:241|298:241|290:131,1,140,2|8,0:0|0:0,0:0:0:0:
344,85,22457,1,8,0:0:0:0:
274,37,22601,6,0,B|246:38|222:51|207:71,1,70,0|2,0:0|0:0,0:0:0:0:
129,48,22890,1,8,0:0:0:0:
198,94,23034,2,0,L|208:254,1,140,2|2,0:0|0:0,0:0:0:0:
244,309,23467,1,8,0:0:0:0:
314,156,23755,6,0,B|336:139|364:135|388:142,2,70,0|0|8,0:0|0:0|0:0,0:0:0:0:
364,223,24188,1,0,0:0:0:0:
280,233,24332,2,0,B|253:220|235:195|230:168,2,70,0|0|8,0:0|0:0|0:0,0:0:0:0:
364,223,24765,1,0,0:0:0:0:
314,156,24909,6,0,B|300:114|260:89|216:91|185:112,1,140,0|8,0:0|0:2,0:0:0:0:
234,182,25342,2,0,B|205:214|202:260|224:296|257:314,1,140,0|8,0:0|0:2,0:0:0:0:
296,239,25774,1,8,0:0:0:0:
117,20,26063,6,0,B|71:39|71:39|63:149,1,140,4|8,0:0|0:0,0:0:0:0:
168,260,26640,2,0,B|214:241|214:241|222:131,1,140,2|8,0:0|0:0,0:0:0:0:
168,85,27073,1,8,0:0:0:0:
90,117,27217,6,0,B|80:92|83:65|95:43,1,70,0|2,0:0|0:0,0:0:0:0:
168,85,27505,1,8,0:0:0:0:
235,35,27649,2,0,B|286:39|325:77|335:123,1,140,2|2,0:0|0:0,0:0:0:0:
415,143,28082,1,8,0:0:0:0:
256,196,28371,6,0,B|205:200|166:238|156:284,1,140,2|8,0:0|0:0,0:0:0:0:
76,304,28804,1,2,0:0:0:0:
118,169,28948,2,0,B|118:114|118:114|113:105|113:105|124:105|124:105|118:96|118:96|118:31,1,140,2|8,0:0|0:0,0:0:0:0:
240,158,29524,6,0,B|269:204|272:258|254:304,1,140,4|0,0:0|0:0,0:0:0:0:
297,217,29957,2,0,B|369:217|369:217|441:169,1,140,2|0,0:0|0:0,0:0:0:0:
425,179,30678,5,0,0:0:0:0:
425,179,30823,1,0,0:0:0:0:
478,114,30967,2,0,B|490:86|490:55|480:29,2,70,0|0|8,0:0|0:0|0:0,0:0:0:0:
236,40,31688,5,0,0:0:0:0:
236,40,31832,2,0,L|157:44,2,70,8|0|8,0:0|0:0|0:0,0:0:0:0:
236,40,33130,5,0,0:0:0:0:
236,40,33274,1,0,0:0:0:0:
304,89,33419,2,0,B|316:117|320:147|316:175,1,70,0|8,0:0|0:0,0:0:0:0:
89,254,33996,5,0,0:0:0:0:
89,254,34140,1,8,0:0:0:0:
139,187,34284,2,0,L|230:181,1,70,0|8,0:0|0:0,0:0:0:0:
208,182,35438,5,0,0:0:0:0:
208,182,35582,1,0,0:0:0:0:
257,249,35726,2,0,B|249:283|228:309|200:324,1,70,0|8,0:0|0:0,0:0:0:0:
208,182,36303,5,0,0:0:0:0:
208,182,36448,1,8,0:0:0:0:
278,136,36592,2,0,B|309:141|335:160|349:185,1,70,0|8,0:0|0:0,0:0:0:0:
438,25,37024,6,0,L|457:75,3,35,0|0|0|0,0:0|0:0|0:0|0:0,0:0:0:0:
411,73,37313,2,0,L|401:122,3,35,0|0|8|0,0:0|0:0|0:3|0:0,0:0:0:0:
380,142,37601,6,0,L|374:285,1,140,4|8,0:0|0:0,0:0:0:0:
224,204,38178,2,0,L|218:64,1,140,8|8,0:0|0:0,0:0:0:0:
67,138,38755,5,0,0:0:0:0:
67,138,38899,2,0,L|71:227,1,70,8|8,0:2|0:2,0:0:0:0:
146,243,39188,2,0,B|181:215|234:226|257:272|246:310,1,140,8|4,0:0|0:2,0:0:0:0:
256,192,39548,12,0,41496,0:0:0:0:
247,108,42217,6,0,B|336:107|336:107|385:139|384:197,1,175,4|8,0:0|0:0,0:0:0:0:
284,212,42649,1,2,0:0:0:0:
365,279,42794,2,0,B|403:287|440:272|462:243,2,87.5,0|0|10,2:0|0:0|0:0,0:0:0:0:
161,291,43371,5,0,0:0:0:0:
161,291,43515,2,0,B|192:295|221:286|243:268,1,87.5,0|8,0:0|0:0,0:0:0:0:
175,189,43803,2,0,B|263:187|263:187|314:198|332:266,1,175,0|2,0:0|0:0,0:0:0:0:
391,324,44236,1,8,0:0:0:0:
473,130,44524,6,0,B|458:63|409:46|409:46|378:74|322:79,1,175,0|8,0:0|0:0,0:0:0:0:
256,28,44957,1,2,0:0:0:0:
160,74,45101,2,0,B|134:74|103:46|103:46|54:63|39:130,1,175,0|10,0:0|0:0,0:0:0:0:
174,290,45678,6,0,B|221:339|301:334|341:280,1,175,0|8,0:0|0:0,0:0:0:0:
255,219,46111,2,0,B|254:189|235:167|235:167|255:157|262:127|276:117|276:117|255:94|257:57,2,175,0|2|0,0:0|0:0|0:0,0:0:0:0:
174,290,46832,6,0,B|139:321|82:306|63:256|81:215|112:199,1,175,4|8,0:0|0:0,0:0:0:0:
206,195,47265,1,0,2:0:0:0:
235,94,47409,2,0,B|270:63|327:78|346:128|328:169|297:185,1,175,0|8,0:0|0:0,0:0:0:0:
101,206,47986,6,0,B|60:150|57:80|83:23,1,175,0|8,0:0|0:0,0:0:0:0:
149,114,48419,2,0,B|265:107|265:107|329:131,1,175,0|0,0:0|0:0,0:0:0:0:
416,168,48851,1,8,0:0:0:0:
321,214,48996,6,0,B|297:165|311:109|351:73|397:65,1,175,4|2,0:0|0:0,0:0:0:0:
416,168,49428,2,0,B|430:201|428:237|415:267,1,87.5,8|0,0:0|2:0,0:0:0:0:
359,340,49717,2,0,B|288:331|288:331|251:341|251:341|160:330,1,175,0|8,0:0|0:0,0:0:0:0:
79,152,50294,6,0,B|143:159|143:159|180:149|180:149|251:158,1,175,2|10,0:0|0:0,0:0:0:0:
340,214,50726,2,0,B|356:245|362:278|359:310,2,87.5,2|8|0,0:0|0:3|0:0,0:0:0:0:
343,108,51159,2,0,B|360:75|385:49|414:32,1,87.5,8|8,0:0|0:0,0:0:0:0:
445,136,51448,6,0,L|299:10,1,175,4|8,0:0|0:0,0:0:0:0:
256,108,51880,1,2,0:0:0:0:
199,21,52024,2,0,L|67:136,1,175,0|10,2:0|0:0,0:0:0:0:
67,136,52457,1,0,2:0:0:0:
72,240,52601,5,0,0:0:0:0:
161,181,52746,2,0,B|195:233|176:302|124:332,2,175,0|0|2,0:0|0:0|0:0,0:0:0:0:
95,98,53467,2,0,B|120:74|155:68|185:78,1,87.5,8|0,0:0|2:0,0:0:0:0:
261,136,53755,6,0,B|352:123|352:123|422:182,1,175,0|8,0:0|0:0,0:0:0:0:
494,246,54188,1,2,0:0:0:0:
393,276,54332,2,0,B|302:289|302:289|232:230,1,175,0|10,2:0|0:0,0:0:0:0:
158,40,54909,6,0,B|156:104|97:151|35:138,1,175,0|8,0:0|0:0,0:0:0:0:
144,148,55342,2,0,B|151:252|151:252|208:309,2,175,0|2|0,0:0|0:0|0:0,0:0:0:0:
194,55,56063,6,0,B|251:31|316:59|339:114,1,175,4|8,0:0|0:0,0:0:0:0:
318,329,56640,2,0,B|261:353|196:325|173:270,1,175,0|8,0:0|0:0,0:0:0:0:
272,232,57073,1,0,2:0:0:0:
370,195,57217,6,0,B|374:72|374:72|436:33,1,175,0|8,0:0|0:0,0:0:0:0:
142,195,57794,2,0,B|138:72|138:72|94:44,1,175,2|8,0:0|0:0,0:0:0:0:
55,142,58226,6,0,B|24:190|33:252|77:290|126:297,1,175,6|0,0:0|2:0,0:0:0:0:
142,195,58659,1,8,0:0:0:0:
231,250,58803,2,0,L|434:255,1,175,4|2,0:0|0:0,0:0:0:0:
502,297,59236,1,8,0:0:0:0:
506,192,59380,6,0,B|470:131|389:117|335:162,1,175,6|8,0:0|0:2,0:0:0:0:
269,213,59813,1,10,0:0:0:0:
77,128,60101,1,0,0:0:0:0:
77,128,60173,1,0,0:0:0:0:
77,128,60246,1,10,0:0:0:0:
74,41,60678,6,0,B|124:38|166:74|175:124|157:163,1,154.000004699707,4|8,0:0|0:0,0:0:0:0:
256,300,61255,1,4,0:2:0:0:
72,300,61544,1,10,0:0:0:0:
229,203,61832,6,0,B|262:196|293:203|318:221,1,77.0000023498536,0|0,0:0|0:0,0:0:0:0:
384,259,62121,1,8,0:0:0:0:
384,259,62265,2,0,L|363:86,1,154.000004699707,2|0,0:0|0:0,0:0:0:0:
404,22,62698,2,0,B|431:3|463:1|491:12,1,77.0000023498536,10|0,0:0|0:0,0:0:0:0:
459,98,62986,5,4,0:0:0:0:
291,21,63274,1,8,0:0:0:0:
209,187,63563,1,4,0:2:0:0:
377,264,63851,1,10,0:0:0:0:
209,187,64140,6,0,L|117:191,2,77.0000023498536,0|0|8,0:0|0:0|0:0,0:0:0:0:
288,138,64573,2,0,B|305:105|299:67|277:40,1,77.0000023498536,2|2,0:0|0:0,0:0:0:0:
203,93,64861,2,0,B|186:61|153:45|121:46,2,77.0000023498536,0|8|2,0:0|0:0|0:0,0:0:0:0:
209,187,65294,6,0,B|186:244|195:304|226:351,1,154.000004699707,4|8,0:0|0:0,0:0:0:0:
381,250,65871,1,4,0:2:0:0:
209,187,66159,1,10,0:0:0:0:
371,98,66448,6,0,B|389:72|393:41|384:14,1,77.0000023498536,0|0,0:0|0:0,0:0:0:0:
296,42,66736,1,8,0:0:0:0:
205,57,66880,2,0,B|150:58|105:92|86:139,1,154.000004699707,2|0,0:0|0:0,0:0:0:0:
178,143,67313,2,0,B|202:169|214:201|215:233,1,77.0000023498536,10|0,0:0|0:0,0:0:0:0:
256,292,67601,5,4,0:2:0:0:
256,292,67746,2,0,L|352:300,2,77.0000023498536,0|8|2,0:0|0:0|0:0,0:0:0:0:
193,224,68178,5,0,0:0:0:0:
193,224,68323,2,0,B|155:223|120:236|92:258,2,77.0000023498536,0|8|2,0:0|0:0|0:0,0:0:0:0:
261,162,68755,5,0,0:0:0:0:
261,162,68899,2,0,B|276:116|268:68,2,77.0000023498536,0|8|2,0:0|0:0|0:0,0:0:0:0:
219,245,69332,1,8,0:0:0:0:
393,181,69621,1,8,0:0:0:0:
210,152,69909,6,0,B|109:157|109:157|54:197,2,154.000004699707,4|8|2,0:0|0:0|0:0,0:0:0:0:
338,284,70774,2,0,B|369:268|386:237|387:205,1,77.0000023498536,8|0,0:0|0:0,0:0:0:0:
293,200,71063,6,0,B|307:170|307:139|298:111,1,77.0000023498536,0|0,0:0|2:0,0:0:0:0:
275,36,71351,1,8,0:0:0:0:
275,36,71496,2,0,B|293:93|357:120|410:93,1,154.000004699707,0|2,0:0|0:0,0:0:0:0:
442,14,71928,2,0,B|417:3|390:2|367:10,1,77.0000023498536,8|0,0:0|0:0,0:0:0:0:
398,97,72217,6,0,B|368:148|390:213|445:235,2,154.000004699707,0|8|0,0:0|0:0|0:0,0:0:0:0:
216,59,73082,2,0,L|136:61,1,77.0000023498536,8|0,0:0|2:0,0:0:0:0:
58,14,73371,6,0,B|112:45|125:116|87:164,1,154.000004699707,2|8,0:0|0:0,0:0:0:0:
53,229,73803,2,0,B|74:306|74:306|166:351,1,154.000004699707,0|2,0:0|0:0,0:0:0:0:
219,289,74236,2,0,B|247:277|278:280|302:294,1,77.0000023498536,8|0,0:0|0:0,0:0:0:0:
371,338,74524,6,0,B|438:306|438:306|459:229,2,154.000004699707,4|8|2,0:0|0:0|0:0,0:0:0:0:
256,192,75390,2,0,L|256:100,1,77.0000023498536,8|0,0:0|0:0,0:0:0:0:
310,40,75678,6,0,B|335:58|347:87|345:115,1,77.0000023498536,0|0,0:0|0:0,0:0:0:0:
256,115,75967,1,8,0:0:0:0:
202,40,76111,2,0,L|38:92,1,154.000004699707,0|2,0:0|0:0,0:0:0:0:
145,107,76544,2,0,B|150:143|180:168|213:170,1,77.0000023498536,8|0,0:0|0:0,0:0:0:0:
276,199,76832,6,0,B|291:254|281:309|255:354,2,154.000004699707,8|8|8,0:0|0:0|0:0,0:0:0:0:
94,238,77698,2,0,B|82:206|86:172|100:145,1,77.0000023498536,8|0,0:0|2:0,0:0:0:0:
183,177,77986,6,0,B|195:145|191:111|177:84,1,77.0000023498536,2|0,0:0|0:0,0:0:0:0:
127,28,78274,1,8,0:0:0:0:
212,65,78419,2,0,L|312:62,1,77.0000023498536,2|0,0:0|0:0,0:0:0:0:
466,114,78851,1,8,0:0:0:0:
336,248,79140,6,0,L|277:253,3,38.5000011749268,4|0|0|0,0:0|0:0|0:0|0:0,0:0:0:0:
260,277,79428,2,0,L|201:282,3,38.5000011749268,8|0|0|0,0:0|0:0|0:0|0:0,0:0:0:0:
178,262,79717,6,0,B|168:249|164:234|164:219,3,38.5000011749268,8|0|8|0,0:0|0:0|0:0|0:0,0:0:0:0:
171,180,80005,2,0,B|168:160|157:144,3,38.5000011749268,8|0|8|0,0:0|0:0|0:0|0:0,0:0:0:0:
144,104,80294,6,0,B|134:63|97:35|54:35|23:54,1,140,4|0,0:0|0:0,0:0:0:0:
85,213,80871,1,2,0:0:0:0:
85,213,81015,2,0,B|99:245|101:278|94:309,1,70,0|0,0:0|0:0,0:0:0:0:
248,356,81448,6,0,B|250:302|269:253|301:215,1,140,2|0,0:0|0:0,0:0:0:0:
376,208,81880,2,0,B|374:154|355:105|323:67,1,140,0|0,0:0|0:0,0:0:0:0:
176,274,82601,6,0,L|160:120,1,140,2|2,0:0|0:0,0:0:0:0:
308,52,83178,2,0,L|293:191,1,140,2|0,2:0|0:0,0:0:0:0:
426,290,83755,5,2,0:0:0:0:
426,290,83899,2,0,B|466:273|489:233|485:190|463:160,2,140,0|0|2,0:0|0:0|0:0,0:0:0:0:
256,192,84909,12,0,86063,0:0:0:0:
256,192,86135,12,0,87409,0:0:0:0:
